Batman Begins 2005 Dual Audio Hindi Dubbed Full Movie Free Download 720p HD BluRay Quality Encoded In x264 With English Subtitles.

Batman Begins 2005 Hindi Dubbed Movie Free Download 720p HD With Subtitles

Details Of Full Length Free Videos

Title: Batman Begins 2005 (Dual Audio)
Genres: Action | Adventure | Thriller
Country: USA | UK
Language: Hindi | English
Release Date: 15 June 2005
Quality: 720p BluRay x264
Subtitles: English
Audio: DD 5.1CH
Format: MKV
Size: 1.8-GB

IMDb

Storyline

Batman Begins Dual Audio Hindi 720p When his parents are killed, billionaire playboy Bruce Wayne relocates to Asia where he is mentored by Henri Ducard and Ra’s Al Ghul in how to fight evil. When learning about the plan to wipe out evil in Gotham City by Ducard, Bruce prevents this plan from getting any further and heads back to his home. Back in his original surroundings, Bruce adopts the image of a bat to strike fear into the criminals and the corrupt as the icon known as ‘Batman’. But it doesn’t stay quiet for long Batman Begins Hindi Dubbed Full Movie Download.

About

Batman Begins is a 2005 superhero film based on the DC Comics character Batman, directed by Christopher Nolan and written by Nolan and David S. Goyer. It stars Christian Bale, Michael Caine, Liam Neeson, Katie Holmes, Gary Oldman, Cillian Murphy, Tom Wilkinson, Rutger Hauer, Ken Watanabe, and Morgan Freeman. The film reboots the Batman film series, telling the origin story of Bruce Wayne from the death of his parents to his journey to become Batman and his fight to stop Ra’s al Ghul and the Scarecrow from plunging Gotham City into chaos.

Main Cast

  • Christian Bale
  • Michael Caine
  • Liam Neeson
  • Katie Holmes
  • Gary Oldman
  • Cillian Murphy
  • Tom Wilkinson
  • Rutger Hauer
  • Ken Watanabe
  • Mark Boone Junior
  • Linus Roache
  • Morgan Freeman
  • Larry Holden
  • Gerard Murphy
  • Colin McFarlane

MKV File Details

MKV File Details

General
1.Batman Begins (2005) 720p Dual Audio BluRay Org DD5.1 [Hindi(640kbps)-English] KartiKing.mkv
Format : Matroska
Format version : Version 4 / Version 2
File size : 1.88 GiB
Duration : 2 h 20 min
Overall bit rate : 1 920 kb/s
Encoded date : UTC 2018-06-13 10:11:23
Writing application : mkvmerge v20.0.0 (‘I Am The Sun’) 32-bit
Writing library : libebml v1.3.5 + libmatroska v1.4.8

Video
ID : 1
Format : AVC
Format/Info : Advanced Video Codec
Format profile : [email protected]
Format settings : CABAC / 5 Ref Frames
Format settings, CABAC : Yes
Format settings, RefFrames : 5 frames
Codec ID : V_MPEG4/ISO/AVC
Duration : 2 h 20 min
Bit rate : 1 088 kb/s
Width : 1 280 pixels
Height : 534 pixels
Display aspect ratio : 2.40:1
Frame rate mode : Constant
Frame rate : 23.976 (24000/1001) FPS
Color space : YUV
Chroma subsampling : 4:2:0
Bit depth : 8 bits
Scan type : Progressive
Bits/(Pixel*Frame) : 0.066
Stream size : 1.06 GiB (57%)
Language : English
Default : Yes
Forced : Yes

Audio #1
ID : 2
Format : AAC
Format/Info : Advanced Audio Codec
Format profile : LC
Codec ID : A_AAC-2
Duration : 2 h 20 min
Bit rate : 192 kb/s
Channel(s) : 6 channels
Channel positions : Front: L C R, Side: L R, LFE
Sampling rate : 48.0 kHz
Frame rate : 46.875 FPS (1024 SPF)
Compression mode : Lossy
Delay relative to video : 9 ms
Stream size : 190 MiB (10%)
Language : English
Default : No
Forced : No

Audio #2
ID : 4
Format : AC-3 Batman Begins Movie Download
Format/Info : Audio Coding 3
Codec ID : A_AC3
Duration : 2 h 20 min
Bit rate mode : Constant
Bit rate : 640 kb/s
Channel(s) : 6 channels
Channel positions : Front: L C R, Side: L R, LFE
Sampling rate : 48.0 kHz
Frame rate : 31.250 FPS (1536 SPF)
Bit depth : 16 bits
Compression mode : Lossy
Stream size : 641 MiB (33%)
Language : Hindi
Service kind : Complete Main
Default : Yes
Forced : Yes

Text #1
ID : 3
Format : UTF-8
Codec ID : S_TEXT/UTF8
Codec ID/Info : UTF-8 Plain Text
Duration : 2 h 9 min
Bit rate : 51 b/s
Count of elements : 1385
Stream size : 49.5 KiB (0%)
Language : English
Default : No
Forced : No

Images, Screenshots Of Full Episodes

Some Images Of Batman Begins Full Movie In Hindi + English Dual Audio 720p BluRay + ESubs

Batman Begins 2005 Hindi Dubbed Movie Free Download 720p HD With Subtitles

Batman Begins 2005 Hindi Dubbed Movie Free Download 720p HD With Subtitles

Batman Begins 2005 Hindi Dubbed Movie Free Download 720p HD With Subtitles

Batman Begins 2005 Hindi Dubbed Movie Free Download 720p HD With Subtitles

Batman Begins 2005 Hindi Dubbed Movie Free Download 720p HD With Subtitles

Watch The Full HD 720p, 1080p Movie Trailers

Watch Batman Begins 2005 Full Movie HD Trailer

Direct Download Links Of Batman Begins Movie In Hindi + English Dual 720p BluRay + ESubs Given Below

Free Download Direct Links HD

Direct Links For Premium Users

If you are the member of this site then enter your login details and Enjoy Direct Links

2 Comments

  1. Vijay

    January 14, 2019 at 11:38 am

    Please send Password reset email

    Reply

    • admin

      admin

      January 14, 2019 at 3:11 pm

      Always Check Your Spam box.

      Reply

Leave a Reply

Your email address will not be published. Required fields are marked *

Check Also

Enaaya Season 1 – Complete

Enaaya Eros Now Web Series Season 1 All Episodes Free Download In Hindi 720p HD WEB-DL Qua…