Byomkesh Web Series All Seasons Hindi Dubbed Full Episodes Free Download In 720p WEBRip Quality Encoded In x264 MKV.

Byomkesh Hindi Dubbed Web Series All Episodes Free Download Season 1, 2, 3 HD

Details Of Full Length Free Videos

Title: Byomkesh Web Series (Hindi)
Genres: Crime | Mystery
Country: India
Language: Bengali
Release Date: 14 October 2017
Quality: 720p x264
Format: MP4
Size: Approx. 540-MB

IMDb | Hoichoi

Byomkesh Season Hindi Dubbed Hoichoi Free Download The time is 1930s, and crime is culminating. One man can uproot the sin: Satyanweshi Byomkesh Bakshi. Hoichoi Originals brings Bengal’s popular sleuth in an all-new but familiar avatar.

Byomkesh Season 1 Hindi Episodes List

Byomkesh Season 1 Hindi Episodes List

Satyanweshi Pother Kanta S1, Ep1
Byomkesh disentangles himself as the truth-seeker, who with friend and writer Ajit uncoils the mystery behind the bizarre murders.

Makorshar Rosh ArthamAnartham S1, Ep2
Byomkesh is on one of his private missions with Ajit. As he decides upon setting his foot forward on a new journey, he meets Satyabati for the first time.

Byomkesh Season 2 Hindi Episodes List

Byomkesh Season 2 Hindi Episodes List

Rakter Daag – Part 1, S2, Ep1
Truth seeker Byomkesh indulges in romance and poetry, till a flamboyant Satyakam comes to him with a weird proposal: to investigate his own murder mystery.

Rakter Daag – Part 2, S2, Ep2
Satyakam predicted his murder that has come true. Byomkesh has to reach to the root cause of the murder and find out what lead him to predict his own end.

Raktamukhi Neela, S2, Ep3
A theft at Maharaj Ramendra Singha’s palace leads Byomkesh to investigate a royal case of the Blue Sapphire.

Byomkesh Season 3 Hindi Episodes List

Byomkesh Season 3 Hindi Episodes List

Shajaru’r Kanta – Part 1, S3, Ep1
When industrialist Debashish becomes the target of a ruthless murder plan, Byomkesh enters the scene to unmask the person.

Shajaru’r Kanta – Part 2, S3, Ep2
Byomkesh comes to know Debashish has an unhappy marital life with wife Deepa, as she loved someone else. Is the murderer someone really close then?

About

Byomkesh Season 2 Hindi Episodes, the much-awaited web series sequel featuring the iconic fictional sleuth, has started streaming on Hoichoi from today. In the new series, Byomkesh Bakshi, the creation of Bengali writer Sharadindu Bandyopadhyay, will solve the mystery of Satyakam’s murder.

“The script is based on Rakter Daag, another bestseller in the Byomkesh series,” said director Soumik Chattopadhyay. Byomkesh is being played by actor Anirban Bhattacharya in the web series. “I have tried to project him as a crime-buster as well as an ordinary human. The character has four to five shades to it and I tried portraying them all,” said Bhattacharya.

Anirban Bhattacharya, recently seen in the critically-acclaimed film Dhananjoy, portrays the lead role of Byomkesh, with Subrat Dutta in the role of Byomkesh’s trusted friend-turned-aide, Ajit. Ridhima Ghosh plays Satyabati, Byomkesh’s wife.

Hoichoi takes the Satyanweshi’s adventures a notch higher with the ‘Byomkesh’ series, an amalgamation of six stories divided in three episodes, with the sleuth slipping into a much more hands-on avatar.

Main Cast

  • Anirban Bhattacharya
  • Subrat Dutta
  • Ridhima Ghosh
  • Aryann Bhowmick
  • Bhaskar Banerjee
  • Amrita Chattopadhyay
  • Tamal Ray Chowdhury
  • Partha Sarathi Deb
  • Koushik Kar
  • Dulal Lahiri
  • Monu Mukherjee
  • Mrinal Mukherjee

MKV File Details

MKV File Details

Format : Matroska
Format version : Version 4 / Version 2
File size : 669 MiB
Duration : 57 min 32 s
Overall bit rate : 1 627 kb/s
Movie name : Byomkesh (2017) S01E01 720p Web-Rip x264 AAC 2.0 ~ Ranvijay

Video
ID : 1
Format : AVC
Format/Info : Advanced Video Codec
Duration : 57 min 32 s
Bit rate : 1 500 kb/s
Width : 1 280 pixels
Height : 544 pixels
Display aspect ratio : 2.35:1
Frame rate mode : Constant
Frame rate : 24.000 FPS
Color space : YUV
Chroma subsampling : 4:2:0
Bit depth : 8 bits
Scan type : Progressive
Bits/(Pixel*Frame) : 0.090
Stream size : 617 MiB (92%)

Audio
ID : 2
Format : AAC
Format/Info : Advanced Audio Codec
Format profile : LC
Codec ID : A_AAC-2
Duration : 57 min 32 s
Bit rate : 125 kb/s
Channel(s) : 2 channels
Channel positions : Front: L R
Sampling rate : 48.0 kHz
Frame rate : 46.875 FPS (1024 SPF)
Compression mode : Lossy
Stream size : 51.6 MiB (8%)
Language : Hindi
Default : Yes
Forced : Yes

Images, Screenshots Of Full Episodes

Some Images Of Byomkesh Season 1, 2, 3 Hindi Dubbed Hoichoi Web Series 720p WEBRip Episodes

Byomkesh Hindi Dubbed Web Series All Episodes Free Download Season 1, 2, 3 HD

Byomkesh Hindi Dubbed Web Series All Episodes Free Download Season 1, 2, 3 HD

Byomkesh Hindi Dubbed Web Series All Episodes Free Download Season 1, 2, 3 HD

Byomkesh Hindi Dubbed Web Series All Episodes Free Download Season 1, 2, 3 HD

Byomkesh Hindi Dubbed Web Series All Episodes Free Download Season 1, 2, 3 HD

Byomkesh Hindi Dubbed Web Series All Episodes Free Download Season 1, 2, 3 HD

Byomkesh Hindi Dubbed Web Series All Episodes Free Download Season 1, 2, 3 HD

Watch The Full HD 720p, 1080p Movie Trailers

Watch Byomkesh Hoichoi Web Series HD Trailer

Direct Download Links Of Byomkesh Web Series All Seasons Complete Episodes In Hindi 720p HD Given Below

Free Download Direct Links HD

Direct Links For Premium Users

If you are the member of this site then enter your login details and Enjoy Direct Links

Leave a Reply

Your email address will not be published. Required fields are marked *

Check Also

Bodyguard Season 1 – Complete

Bodyguard Season 1 All Episodes Download In 480p, 720p, 720p HEVC and 1080p Full HD WEb-DL…