Free Download Hoichoi’s Dhanbad Blues Web Series In Hindi All Episodes 720p HD WEB-DL Quality Encoded In x264 MKV.

Download Dhanbad Blues Hindi Dubbed Web Series 720p HD

Details Of Full Length Free Videos

Title: Dhanbad Blues In Hindi
Genres: Thriller
Country: India
Language: Hindi
Release Date: 15 December 2018
Quality: 720p WEB-DL x264
Audio: AAC
Format: MP4
Size: Approx. 200-MB

IMDb | Hoichoi

Storyline

Mrinal subunit may be a failing director whose life takes a flip once he gets a chance to direct a movie in Jharkhand. Hoichoi presents web-series “Dhanbad Blues Hindi Dubbed Episodes Download”.

About

After immense Success in Japani Toy, next information director Sourav Chakraborty currently come back up with a dark adventure story. His next project Dhanbad Blues Episodes In Hindi and they transfer which can be streaming on Hoichoi, supported blood, Mafia world, Political turmoil etc. Sourav Chakraborty is kind of dependent on his new projcet. Sourav Chakraboty told concerning Dhanbad Blues Hoichoi Full Episodes to Kolkata24x7 in Associate in Nursing interview. scan on below for my letter of the alphabet and A with the Sourav Chakraborty himself.

He don’t endure his female offspring, Producer stopped giving cash for his project. He encumbered his house to complete his next motion-picture show however because of several ups and down he failed to complete the movie. He started add his third image once taking loan from bank.
Co-incidentally Mrinal offered to create a motion-picture show in Dhanbad space and for this immense quantity of cash is given to him. 1st of all he failed to perceive the supply. once reaching there, Mrinal realised that his values, policies, and ideals failed to match with the film he was known as to try to to. however he couldn’t come to the house. The story starts from there.

Dhanbad Blues Hoichoi In Hindi Episodes List:

S01E01 Game Over
Career and relationship have failing miserably in director Mrinal’s life. can his call of acceptive a chance to direct a movie, amendment his life?

S01E02 Ruti-Ruji line
Mrinal is asked by his production manager to succeed in Dhanbad for the film, whereas Dhanbad is waiting to welcome him with a prepared script.

S01E03 Garia To Jhariya
With his assistant director, Mrinal starts for Dhanbad. Upon reaching he’s asked to shoot a movie, among 3 days. Did he take a wise call altogether?

S01E04 Bhadro Maash
It’s a resolute scenario for Mrinal in each means, because the cash he received for creating the film is shelled out by a mafia World Health Organization desires him to create a creation film!

S01E05 Muhurat
Mrinal feels out of place once the reality is unconcealed to him. Upon smelling danger, Riddhima reaches resolute facilitate him, by narrating a script for the film.

S01E06 Chumur overdose
Jharia turns into a shooting set for Mrinal, whereas he’s unaware concerning changing into the news of the hour at Kolkata. Is he the victim of Associate in Nursing approaching hazard?

S01E07 Director Ke Haath Mein Bandook
Mrinal and his assistant director Riddhima attempt ways in which to flee from Jharia once they realise that they’re treed till they are able to complete the film.

S01E08 Nidhiram Sardar
Amidst the things terrorising Mrinal, he comes across a specific proof that may facilitate him escape Jharia.

S01E09 help Please help
The film is finally complete, and it is time for a special screening. Has it gone as per the script enclosed by Ridhhima and Mrinal?

MEDIA INFO

MEDIA INFO

General
Format : Matroska
Format version : Version 4
File size : 1.54 GiB
Duration : 3 h 10 min
Overall bit rate : 1 153 kb/s
Writing application : Lavf58.20.100
Writing library : Lavf58.20.100
ErrorDetectionType : Per level 1

Video
ID : 1
Format : AVC
Format/Info : Advanced Video Codec
Format profile : [email protected]
Format settings : CABAC / 4 Ref Frames
Format settings, CABAC : Yes
Format settings, RefFrames : 4 frames
Codec ID : V_MPEG4/ISO/AVC
Duration : 3 h 10 min
Bit rate : 2 042 kb/s
Nominal bit rate : 958 kb/s
Width : 1 280 pixels
Height : 720 pixels
Display aspect ratio : 16:9
Frame rate mode : Constant
Frame rate : 25.000 FPS
Color space : YUV
Chroma subsampling : 4:2:0
Bit depth : 8 bits
Scan type : Progressive
Bits/(Pixel*Frame) : 0.089
Stream size : 2.72 GiB
Writing library : x264 core 148 r2643 5c65704
Default : Yes
Forced : No

Audio
ID : 2
Format : AAC LC
Format/Info : Advanced Audio Codec Low Complexity
Codec ID : A_AAC-2
Duration : 3 h 10 min
Bit rate : 129 kb/s
Channel(s) : 1 channel
Channel layout : C
Sampling rate : 44.1 kHz
Frame rate : 43.066 FPS (1024 SPF)
Compression mode : Lossy
Stream size : 176 MiB (11%)
Writing library : Lavc58.35.100 libfdk_aac
Default : Yes
Forced : No

Images, Screenshots Of Full Episodes

Screenshots/Images Of Dhanbad Blues Season 1 In Hindi 720p WEB-DL x264

Download Dhanbad Blues Hindi Dubbed Web Series 720p HD

Download Dhanbad Blues Hindi Dubbed Web Series 720p HD

Download Dhanbad Blues Hindi Dubbed Web Series 720p HD

Download Dhanbad Blues Hindi Dubbed Web Series 720p HD

Download Dhanbad Blues Hindi Dubbed Web Series 720p HD

Watch The Full HD 720p, 1080p Movie Trailers

Watch Dhanbad Blues Hoichoi Web Series Hindi Trailer

Free Download Dhanbad Blues Web Series Hindi Dubbed All Episodes In 720p HD From Below

Free Download Direct Links HD

Direct Links For Premium Users

If you are the member of this site then enter your login details and Enjoy Direct Links

One Comment

  1. mihir

    February 8, 2019 at 8:21 pm

    Plz upload dhanbad blues in hindi in single episode link.

    Reply

Leave a Reply

Your email address will not be published. Required fields are marked *

Check Also

The Kapil Sharma Show Season 2 – Episode 15 Added

The Kapil Sharma Show Season 2 All Episodes Free Download Full Length 480p + 720p HD Quali…