Six Season 1 Hindi Dubbed Hoichoi Web Series All Episodes Free Download In 720p HD WEB-DL Quality Encoded In x264 MKV.

Hoichoi Season 1 Six Web Series In Hindi Dubbed All Episodes 720p HD Download

Details Of Full Length Free Videos

Title: Six Hoichoi Web Series In Hindi
Genres: Thriller
Country: India
Language: Hindi
Release Date: 26 January 2018
Quality: 720p WEB-DL x264
Audio: AAC
Format: MKV
Size: Approx. 300-MB

IMDb | Hoichoi

Storyline

Six net Series By Hoichoi All Episodes Free transfer Direct Links 720p Soumyojit Ray’s life turns the wrong way up, once his partner suddenly dies and he gets suspect. Hoichoi Originals presents Six, a never-seen-before psycho-thriller.

Six Hoichoi Hindi Dubbed Episodes are:-

S01E01 cannot stick with you any longer
– Soumya waits for his partner Rikhia at a eating house, however instead gets a letter from her colleague Razia, that mentions her temperament to remain with him. Anxious he reaches home solely to search out his partner Rikhia dead.

S01E02 girl in red
– Soumya is incorrectly suspect of murdering his partner, Rikhia. Is inspector Chokhani truly suspecting him or is there a hidden truth?

S01E03 You killed that bitch
– A nonplused Soumyo is helped by associate unknown bike rider to flee from the police’s interrogation. However, Razia meets him simply in time to tell him, to not believe Rudra’s intentions. Did Soumyo take a wise call by escaping with him?

S01E04 Rikhia returns
– Soumyo is on the run and eventually winds up in his mess to satisfy his former inmate Bhanu district attorney. meantime Nilanjan and Dhiman discover a maternity kit in Soumyo’s flat.

S01E05 I will hear myself
– Soumyo is continually on the run and tries to contact Hindu deity, Rikhia’s mother. whereas he meets her to win over her regarding his innocence, their meeting is interrupted by a decision from Anindya, Soumyo’s friend.

S01E06 child UN agency is aware of an excessive amount of
– As his escapades get marginally lost by the police, they indefatigably continue their chase and are available across sure evidences that leaves Soumyo because the prime suspect. Evidences rarely lie; is Soumyo Roy a killer?

S01E07 Mission Dr.Pakrashi
– Soumyo reaches his mess wherever he finds Hindu deity attempt Bhanu district attorney and tries to require Rudra’s support. Inspector Chokhani arrives at the scene, that causes them to flee once more.

S01E08 Forget Rikhia forget everything
– Soumyo finds himself caught during a net of belief and deceit. Accidentally, he stumbles upon Razia and escapes together with her.

S01E09 It’s sophisticated
– Soumyo manages to succeed in Dr. Pakrashi’s place solely to search out Amitabha, Rikhia’s boss et al. looking ahead to Pakrashi. Why is everybody trying to find him?

S01E10 i am going to allow you to die
– it is a make-or-break state of affairs for Soumyo UN agency is charged with the murder of his partner Rikhia, the girl he deeply darling. Is he the outlaw, or the victim?

MEDIA INFO

MEDIA INFO

General
Format : Matroska
Format version : Version 4
File size : 1.52 GiB
Duration : 3 h 17 min
Overall bit rate : 1 101 kb/s
Writing application : Lavf58.26.100
Writing library : Lavf58.26.100
ErrorDetectionType : Per level 1

Video
ID : 1
Format : AVC
Format/Info : Advanced Video Codec
Format profile : [email protected]
Format settings : CABAC / 4 Ref Frames
Format settings, CABAC : Yes
Format settings, RefFrames : 4 frames
Codec ID : V_MPEG4/ISO/AVC
Duration : 3 h 17 min
Bit rate : 2 037 kb/s
Nominal bit rate : 906 kb/s
Width : 1 280 pixels
Height : 720 pixels
Display aspect ratio : 16:9
Frame rate mode : Constant
Frame rate : 25.000 FPS
Color space : YUV
Chroma subsampling : 4:2:0
Bit depth : 8 bits
Scan type : Progressive
Bits/(Pixel*Frame) : 0.088
Stream size : 2.81 GiB
Writing library : x264 core 148 r2643 5c65704
Default : Yes
Forced : No

Audio
ID : 2
Format : AAC LC
Format/Info : Advanced Audio Codec Low Complexity
Codec ID : A_AAC-2
Duration : 3 h 17 min
Bit rate : 128 kb/s
Channel(s) : 1 channel
Channel layout : C
Sampling rate : 44.1 kHz
Frame rate : 43.066 FPS (1024 SPF)
Compression mode : Lossy
Delay relative to video : -86 ms
Stream size : 181 MiB (12%)
Writing library : Lavc58.46.100 libfdk_aac
Language : English
Default : Yes
Forced : No

Images, Screenshots Of Full Episodes

Screenshots/Images Of Six Hoichoi Hindi Dubbed Web Series Season 1 All Episodes 720p WEB-DL x264.

Hoichoi Season 1 Six Web Series In Hindi Dubbed All Episodes 720p HD Download

Hoichoi Season 1 Six Web Series In Hindi Dubbed All Episodes 720p HD Download

Hoichoi Season 1 Six Web Series In Hindi Dubbed All Episodes 720p HD Download

Hoichoi Season 1 Six Web Series In Hindi Dubbed All Episodes 720p HD Download

Hoichoi Season 1 Six Web Series In Hindi Dubbed All Episodes 720p HD Download

Hoichoi Season 1 Six Web Series In Hindi Dubbed All Episodes 720p HD Download

Watch The Full HD 720p, 1080p Movie Trailers

Watch Six Season 1 Hoichoi Trailer

Free Download Six Web Series Hindi Dubbed All Episodes 720p HD From Below

Free Download Direct Links HD

Direct Links For Premium Users

If you are the member of this site then enter your login details and Enjoy Direct Links

Leave a Reply

Your email address will not be published. Required fields are marked *

Check Also

The Kapil Sharma Show Season 2 – Episode 15 Added

The Kapil Sharma Show Season 2 All Episodes Free Download Full Length 480p + 720p HD Quali…